Skip to main content

Monks of Doom Live at 23 East Cabaret on 1989-04-11




1. intro - Vs. Montana (instrumental)
2. Trapped
3. B-Music
4. Blues On Sunday
5. Jim Gore and the Ghost Of Missouri
6. In Anticipation Of The Pope
7. Save Me From Myself
8. Visions From The Acid Couch
9. Fall From Grace
10. ? - Ukranian Technological Faith Dance
11. The Vivian Girls - Broadcast At Midday
12. Vaporize Your Crystals - encore intro
13. Voodoo Vengeance


Collection MonksofDoom
Band/Artist Monks of Doom
Venue 23 East Cabaret
Location Ardmore, PA

Source SBD?
Lineage ? > CD > iTunes v7.0.1(7) > xACT 1.58 > FLAC (level 6)
Taped by ?
Transferred by TAS aka morst

Notes

Monks Of Doom
April 11, 1989
23 East Cabaret
Ardmore PA

Jonathan Segel opened: http://www.archive.org/details/jsegel1989-04-11.flac

Source: SBD?
Transfer: ? > CD > iTunes v7.0.1(7) > xACT 1.58 > FLAC (level 6)
Taper: ?

1. intro - Vs. Montana (instrumental)
2. Trapped
3. B-Music
4. Blues On Sunday
5. Jim Gore and the Ghost Of Missouri
6. In Anticipation Of The Pope
7. Save Me From Myself
8. Visions From The Acid Couch
9. Fall From Grace
10. ? - Ukranian Technological Faith Dance
11. The Vivian Girls (Snakefinger) - Broadcast At Midday
12. Vaporize Your Crystals - encore intro
13. Voodoo Vengeance (Eugene Chadbourne)

shntool results:
length expanded size cdr WAVE problems filename
4:07.70 43735484 --- -- ---xx mod1989-04-11t01.flac
3:21.55 35585804 --- -- ---xx mod1989-04-11t02.flac
3:38.10 38478764 --- -- ---xx mod1989-04-11t03.flac
2:17.70 24331484 --- -- ---xx mod1989-04-11t04.flac
3:22.65 35785724 --- -- ---xx mod1989-04-11t05.flac
3:29.10 36891164 --- -- ---xx mod1989-04-11t06.flac
3:52.40 41018924 --- -- ---xx mod1989-04-11t07.flac
4:57.15 52426124 --- -- ---xx mod1989-04-11t08.flac
3:51.15 40783724 --- -- ---xx mod1989-04-11t09.flac
6:29.35 68701964 --- -- ---xx mod1989-04-11t10.flac
7:18.45 77369084 --- -- ---xx mod1989-04-11t11.flac
3:15.60 34539164 --- -- ---xx mod1989-04-11t12.flac
3:50.74 40746092 --- -- ---xx mod1989-04-11t13.flac
53:53.39 570393500 B (totals for 13 files, 0.5591 overall compression ratio)

Reviews

Reviewer: J.Schidlowsky - - February 13, 2007
Subject: Vaporize my crystals
I only got to see them live once, and it was a great show. I was heavily into Camper and these guys at the time (early 90s). This recording is pretty nice too! Sound is pretty decent. Thanks for posting.

I can identify the instrumental in track 1, it's called "Vs. Montana". It was on a 1988 LP called "Germ's Choice: A KUSF Compilation", and had some lyrics (too bad they didn't sing them).
Reviewer: morst - - October 8, 2006
Subject: Kickass sound on this early MoD gig!
Thanks to Tootles/Lisa for the disc! This one is hot Hot HOT!!! LOOKOUT! :-D
5 stars!!!!! *****
PEOPLE ALSO FOUND
Monks of Doom
by Monks of Doom
780
1
3
( 3 reviews )
Source: Neumann KM-140 > Beyer MV100 > Sony SBM-1 > Sony D8
Monks of Doom
by Monks of Doom
2,280
1
0
Source: Stereo mic > Sony D3 > MCAS
Monks of Doom
by Monks of Doom
7,343
2
3
( 3 reviews )
Source: AUD > MD
Monks of Doom
by Monks of Doom
4,887
2
2
( 2 reviews )
Source: AUD > MD
Monks of Doom
by Monks of Doom
1,273
1
0
Source: AKG C522MS ("The Pickle Mic") > Grace Lunatec V3 (mic preamp & A>D converter) + Soundcraft 800B SBD > Edirol R44 > WAVs @48kHz/24bit
Monks of Doom
by Monks of Doom
145
1
0
Source: DPA 4061 mics > Sony PCM-D50 > WAV @48/24
Monks of Doom
by Monks of Doom
2,822
1
2
( 2 reviews )
Source: SBD?
Monks of Doom
by Monks of Doom
169
1
0
Source: DPA 4061 mics > Sony PCM-D50 > WAV @48/24
Monks of Doom
by Monks of Doom
706
1
1
( 1 reviews )
Source: DPA 4061 mics > Sony PCM-D50 > WAV @48/24
Monks of Doom
by Monks of Doom
548
1
0
Source: DPA 4061 mics > Sony PCM-D50 > WAV @48/24